<?xml version="1.0" standalone="no"?>
<!DOCTYPE svg PUBLIC "-//W3C//DTD SVG 1.1//EN" "http://www.w3.org/Graphics/SVG/1.1/DTD/svg11.dtd" >
<svg xmlns="http://www.w3.org/2000/svg">
<metadata>Generated by IcoMoon</metadata>
<defs>
<font id="icomoon" horiz-adv-x="1024">
<font-face units-per-em="1024" ascent="960" descent="-64" />
<missing-glyph horiz-adv-x="1024" />
<glyph unicode="&#x20;" horiz-adv-x="512" d="" />
<glyph unicode="&#xe900;" glyph-name="heart-pulse" horiz-adv-x="1147" d="M574.116 824.471c21.164 22.869 38.572 46.762 60.416 65.194 157.696 131.755 403.456 70.997 480.256-120.49 54.956-136.534 32.428-263.167-70.312-370.347-140.288-146.772-282.968-291.5-424.62-436.908-6.144-6.144-13.312-11.944-21.164-16.384-25.256-14.676-50.516-10.92-70.656 9.9-148.478 155.308-297.982 309.932-445.438 466.604-115.712 122.88-108.544 322.559 13.312 446.463 118.784 120.832 314.71 121.515 433.834 1.365 13.312-13.653 26.624-27.307 44.372-45.397zM477.52 523.756c1.708-3.412 4.096-6.828 5.804-10.58 16.384-32.768 32.768-65.196 49.152-98.304 8.192-17.068 19.796-29.696 39.936-27.992 20.136 1.708 34.816 12.632 42.664 31.744 14.68 35.84 29.016 71.68 43.692 107.52 1.708 4.44 4.096 8.876 6.828 15.020 11.264-17.748 21.844-33.792 32.084-49.836 9.9-15.016 23.212-23.208 41.3-23.208 38.912 0 77.484 0 116.396 0 26.964 0 43.008 16.040 43.008 41.64-0.34 24.92-16.384 39.936-43.008 40.28-29.012 0-58.028 0.34-87.040-0.344-9.556-0.34-15.36 2.391-20.48 10.924-19.796 31.403-40.276 62.123-60.416 93.184-9.216 14.677-22.868 20.139-39.252 18.773-15.704-1.365-26.284-10.922-32.428-25.258-4.096-9.899-8.192-19.798-12.288-29.355-11.948-28.331-23.552-57.003-36.524-87.724-12.968 26.284-24.916 50.178-36.864 74.071-16.040 31.744-47.784 37.205-73.044 11.946-18.772-18.432-37.548-37.205-55.978-55.978-6.827-6.827-13.312-10.239-23.211-9.899-30.378 0.683-60.416 0.342-90.794 0.342-26.966 0-43.35-15.702-43.008-41.302 0-24.916 16.042-40.276 42.666-40.62 39.595-0.34 79.19 0 118.784 0 11.945 0 20.821 4.78 29.013 13.312 13.312 13.996 28.332 27.308 43.008 41.644z" />
<glyph unicode="&#xe901;" glyph-name="home-roof-heart" d="M983.753 593.097l-369.003 303.644c-28.979 23.73-65.284 36.696-102.741 36.696s-73.758-12.966-102.741-36.696l-369.003-303.644c-3.785-3.118-6.919-6.951-9.222-11.281s-3.732-9.070-4.203-13.951c-0.471-4.881 0.023-9.807 1.455-14.497s3.774-9.052 6.893-12.837c3.118-3.785 6.951-6.919 11.28-9.221 4.329-2.304 9.070-3.733 13.951-4.203 4.881-0.474 9.807 0.021 14.498 1.455 4.69 1.429 9.052 3.772 12.837 6.892l50.923 41.963v-428.088c0-113.993 60.231-174.225 174.222-174.225h398.223c113.988 0 174.221 60.233 174.221 174.225v428.088l50.923-41.863c3.785-3.117 8.149-5.459 12.838-6.893s9.617-1.929 14.498-1.455c4.881 0.469 9.621 1.899 13.948 4.203 4.331 2.304 8.162 5.437 11.281 9.222s5.461 8.147 6.895 12.837c1.429 4.69 1.924 9.616 1.455 14.497-0.474 4.881-1.903 9.622-4.203 13.951-2.304 4.329-5.44 8.162-9.225 11.28v-0.099zM707.388 358.694c-26.133-132.86-195.379-209.365-195.379-209.365s-169.244 76.506-195.377 209.365c-15.929 81.536 18.866 163.52 107.371 163.968 19.557-0.858 38.403-7.573 54.091-19.268 15.693-11.699 27.511-27.844 33.916-46.34 6.404 18.496 18.223 34.641 33.916 46.34 15.693 11.695 34.539 18.411 54.093 19.268 88.653-0.448 123.298-82.432 107.371-163.968z" />
<glyph unicode="&#xe902;" glyph-name="add" d="M25.6 448c0 42.415 34.384 76.8 76.8 76.8h819.2c42.415 0 76.8-34.385 76.8-76.8s-34.385-76.8-76.8-76.8h-819.2c-42.416 0-76.8 34.385-76.8 76.8zM512 934.4c42.415 0 76.8-34.384 76.8-76.8v-819.2c0-42.415-34.385-76.8-76.8-76.8s-76.8 34.385-76.8 76.8v819.2c0 42.416 34.385 76.8 76.8 76.8z" />
<glyph unicode="&#xe903;" glyph-name="arrow-right" d="M608.92 825.123c15.995 15.996 41.931 15.996 57.926 0l331.502-331.503c7.684-7.681 11.997-18.1 11.997-28.963s-4.313-21.282-11.997-28.963l-331.502-331.504c-15.995-15.995-41.931-15.995-57.926 0-15.995 15.999-15.995 41.931 0 57.926l302.539 302.542-302.539 302.54c-15.995 15.996-15.995 41.93 0 57.926zM0 464.658c0 22.621 18.338 40.96 40.96 40.96h919.142c22.622 0 40.96-18.339 40.96-40.96s-18.338-40.959-40.96-40.959h-919.142c-22.622 0-40.96 18.337-40.96 40.959z" />
<glyph unicode="&#xe904;" glyph-name="calendar" d="M316.182 960c20.836 0 37.726-16.891 37.726-37.726v-134.737c0-20.836-16.891-37.726-37.726-37.726s-37.726 16.891-37.726 37.726v134.737c0 20.836 16.891 37.726 37.726 37.726zM675.479 960c20.836 0 37.726-16.891 37.726-37.726v-134.737c0-20.836-16.891-37.726-37.726-37.726s-37.726 16.891-37.726 37.726v134.737c0 20.836 16.891 37.726 37.726 37.726zM76.35 603.846c0 20.836 16.891 37.726 37.727 37.726h763.507c20.836 0 37.726-16.891 37.726-37.726s-16.891-37.726-37.726-37.726h-763.507c-20.836 0-37.727 16.891-37.727 37.726zM172.6 767.48c-27.851-29.993-43.253-75.551-43.253-137.136v-381.754c0-61.586 15.402-107.143 43.253-137.135 27.381-29.486 72.176-49.702 143.583-49.702h359.296c71.405 0 116.202 20.216 143.586 49.702 27.847 29.992 43.251 75.55 43.251 137.135v381.754c0 61.586-15.403 107.143-43.251 137.136-27.384 29.487-72.181 49.699-143.586 49.699h-359.296c-71.406 0-116.202-20.212-143.583-49.699zM117.309 818.822c45.601 49.109 113.086 73.81 198.874 73.81h359.296c85.79 0 153.271-24.7 198.877-73.81 45.131-48.603 63.413-115.326 63.413-188.478v-381.754c0-73.151-18.281-139.873-63.413-188.475-45.606-49.114-113.087-73.814-198.877-73.814h-359.296c-85.787 0-153.272 24.7-198.874 73.814-45.132 48.602-63.414 115.324-63.414 188.475v381.754c0 73.152 18.282 139.875 63.414 188.478zM624.042 396.8c0 20.836 16.891 37.726 37.726 37.726h0.404c20.836 0 37.726-16.891 37.726-37.726s-16.891-37.726-37.726-37.726h-0.404c-20.836 0-37.726 16.891-37.726 37.726zM624.042 262.063c0 20.836 16.891 37.726 37.726 37.726h0.404c20.836 0 37.726-16.891 37.726-37.726s-16.891-37.726-37.726-37.726h-0.404c-20.836 0-37.726 16.891-37.726 37.726zM457.903 396.8c0 20.836 16.891 37.726 37.726 37.726h0.403c20.836 0 37.726-16.891 37.726-37.726s-16.891-37.726-37.726-37.726h-0.403c-20.836 0-37.726 16.891-37.726 37.726zM457.903 262.063c0 20.836 16.891 37.726 37.726 37.726h0.403c20.836 0 37.726-16.891 37.726-37.726s-16.891-37.726-37.726-37.726h-0.403c-20.836 0-37.726 16.891-37.726 37.726zM291.675 396.8c0 20.836 16.891 37.726 37.726 37.726h0.403c20.836 0 37.726-16.891 37.726-37.726s-16.891-37.726-37.726-37.726h-0.403c-20.836 0-37.726 16.891-37.726 37.726zM291.675 262.063c0 20.836 16.891 37.726 37.726 37.726h0.403c20.836 0 37.726-16.891 37.726-37.726s-16.891-37.726-37.726-37.726h-0.403c-20.836 0-37.726 16.891-37.726 37.726z" />
<glyph unicode="&#xe905;" glyph-name="twitter" d="M736 595.692c-16.801-8.86-33.598-11.815-53.2-14.77 19.602 11.816 33.602 29.539 39.201 53.17-16.801-11.815-36.4-17.723-58.8-23.631-16.801 17.723-42.002 29.538-67.2 29.538-58.8 0-103.6-59.077-89.6-118.155-75.6 2.955-142.801 41.355-190.401 100.432-25.2-44.309-11.2-100.432 28-129.97-14 0-28 5.91-42 11.816 0-44.306 30.8-85.661 72.799-97.477-13.998-2.951-27.999-5.906-41.999-2.951 11.2-38.4 44.8-67.939 86.799-67.939-33.598-26.587-83.999-41.355-131.599-35.449 42-26.584 89.6-44.306 139.999-44.306 170.8 0 266.002 150.645 260.4 289.477 19.602 11.816 36.4 29.539 47.601 50.215z" />
<glyph unicode="&#xe906;" glyph-name="card" d="M938.667 637.866c0-28.16-23.040-51.2-51.2-51.2h-750.933c-28.16 0-51.2 23.040-51.2 51.2v0.427c0 97.707 78.933 176.64 176.64 176.64h499.627c97.707 0 177.067-79.36 177.067-177.067zM85.333 471.467v-213.76c0-97.707 78.933-176.64 176.64-176.64h499.627c97.707 0 177.067 79.36 177.067 177.067v213.333c0 28.16-23.040 51.2-51.2 51.2h-750.933c-28.16 0-51.2-23.040-51.2-51.2zM341.333 224h-85.333c-17.493 0-32 14.507-32 32s14.507 32 32 32h85.333c17.493 0 32-14.507 32-32s-14.507-32-32-32zM618.667 224h-170.667c-17.493 0-32 14.507-32 32s14.507 32 32 32h170.667c17.493 0 32-14.507 32-32s-14.507-32-32-32z" />
<glyph unicode="&#xe907;" glyph-name="charity" d="M993.98 390.123h-963.98c-10.426 0-20.53 1.792-29.999 5.116v-429.244c0-16.567 13.432-29.999 29.999-29.999h963.98c16.567 0 29.999 13.431 29.999 29.999v429.244c-9.468-3.324-19.571-5.116-29.999-5.116zM863.313 66.662c0-16.567-13.431-29.999-29.999-29.999h-642.652c-16.568 0-29.999 13.431-29.999 29.999v192.798c0 16.567 13.431 29.999 29.999 29.999h642.652c16.567 0 29.999-13.431 29.999-29.999v-192.798zM220.675 229.457h582.653v-132.796h-582.653v132.796zM30 450.121h963.979c10.398 0 20.053 5.385 25.523 14.229 5.466 8.845 5.961 19.887 1.314 29.188l-128.533 257.059c-5.082 10.164-15.471 16.584-26.833 16.584h-76.053c-12.962-45.089-42.697-88.084-88.977-128.531h36.497c39.761-1.476 39.731-58.537 0-59.999h-449.856c-39.761 1.476-39.731 58.537 0 59.999h36.497c-46.279 40.445-76.012 83.44-88.976 128.531h-76.052c-11.364 0-21.749-6.42-26.833-16.584l-128.529-257.059c-4.65-9.301-4.152-20.343 1.314-29.188s15.122-14.229 25.52-14.229zM397.387 656.808c9.152-6.536 18.276-12.593 27.114-18.156h175.004c76.382 45.645 140.809 118.374 137.425 181.455 0.926 114.726-134.741 181.477-224.93 111.018-154.256 109.196-351.382-116.076-114.613-274.317z" />
<glyph unicode="&#xe909;" glyph-name="chevron-right" d="M258.962 940.039c26.679 26.641 69.903 26.611 96.543-0.068l409.6-410.177c26.615-26.652 26.615-69.824 0-96.476l-409.6-410.175c-26.64-26.679-69.865-26.713-96.543-0.068-26.679 26.638-26.709 69.864-0.068 96.543l361.43 361.939-361.43 361.94c-26.641 26.679-26.611 69.903 0.068 96.544z" />
<glyph unicode="&#xe90a;" glyph-name="close-mark" d="M36.261 923.796c19.995 19.995 52.413 19.995 72.408 0l876.031-876.030c19.995-19.995 19.995-52.415 0-72.41s-52.415-19.995-72.41 0l-876.028 876.033c-19.995 19.995-19.995 52.413 0 72.408zM984.644 923.796c19.995-19.995 19.995-52.413 0-72.408l-876.033-876.033c-19.995-19.995-52.413-19.995-72.408 0s-19.995 52.415 0 72.41l876.030 876.030c19.995 19.995 52.415 19.995 72.41 0z" />
<glyph unicode="&#xe90b;" glyph-name="collaboration" d="M1013.213 258.413l-97.024 97.034-200.714-200.714c-35.827-35.827-80.797-59.187-129.638-67.93l127.882-127.882c11.712-11.718 30.71-11.718 42.422 0l257.072 257.062c11.718 11.718 11.718 30.72 0 42.429zM876.666 400.774c33.821 33.811 33.827 88.835 0.045 122.672-0.038 0.038-0.077 0.077-0.115 0.115-8.362 8.352-18.125 14.79-28.758 19.094 9.219 23.322 11.165 62.758-19.376 93.306-0.077 0.077-0.157 0.163-0.24 0.24-8.323 8.267-18.026 14.642-28.589 18.923 9.219 23.305 11.174 62.75-19.35 93.281-0.022 0.023-0.038 0.039-0.054 0.055-8.368 8.367-18.141 14.82-28.79 19.125 9.219 23.32 11.165 62.766-19.373 93.313-0.010 0-0.010 0.008-0.016 0.008-0.010 0.008-0.016 0.016-0.026 0.023-33.834 33.836-88.88 33.836-122.717 0l-56.883-56.875 29.085-29.086c48.47-48.469 48.47-127.328 0.010-175.797-16.314-16.304-36.352-27.507-58.195-32.845-5.229-21.296-16.134-41.482-32.752-58.093-16.288-16.288-36.294-27.485-58.115-32.829-5.338-21.811-16.541-41.827-32.822-58.109-16.288-16.288-36.294-27.485-58.115-32.829-5.338-21.811-16.541-41.827-32.821-58.115-23.477-23.469-54.695-36.406-87.899-36.406s-64.422 12.928-87.899 36.413l-29.086 29.088-97.023-97.034c-11.719-11.718-11.719-30.71 0-42.429l257.063-257.062c11.719-11.718 30.711-11.712 42.43 0l184.016 184.006h51.843c49.453 0 95.946 19.267 130.915 54.227l203.61 203.619zM175.328 368.781c25.109-25.117 65.828-25.117 90.937 0 25.117 25.11 25.117 65.821 0 90.938 25.117-25.117 65.827-25.117 90.944 0 25.11 25.11 25.11 65.827 0 90.938 25.11-25.11 65.83-25.11 90.938 0 25.11 25.11 25.11 65.827 0 90.938 25.11-25.11 65.83-25.11 90.938 0 25.12 25.117 25.12 65.828 0 90.945l-128.218 128.219c-25.11 25.109-65.827 25.109-90.937 0s-25.109-65.828 0-90.938l16.064-16.070c-25.111 25.117-65.829 25.117-90.939 0-25.109-25.109-25.109-65.828 0-90.937l32.133-32.134c-25.109 25.11-65.828 25.11-90.938 0-25.117-25.107-25.117-65.827 0-90.938l32.133-32.141c-25.117 25.12-65.828 25.12-90.946 0-25.109-25.107-25.109-65.818 0-90.938l47.891-47.882zM566.874 903.36c4.438 4.437 9.133 8.516 14.016 12.305l-17.546 17.547c-9.126 9.133-23.085 11.391-34.624 5.625l-74.048-37.023 55.328-55.336 56.874 56.883z" />
<glyph unicode="&#xe90c;" glyph-name="copy" d="M156.493 547.505c-24.662-24.662-39.161-66.396-39.161-137.906v-179.199c0-71.514 14.499-113.242 39.161-137.907 24.662-24.659 66.396-39.162 137.906-39.162h179.2c71.51 0 113.244 14.502 137.906 39.162 24.662 24.666 39.158 66.394 39.158 137.907v179.199c0 71.51-14.495 113.244-39.158 137.906s-66.396 39.161-137.906 39.161h-179.2c-71.51 0-113.244-14.499-137.906-39.161zM111.238 592.76c42.538 42.537 105.338 57.906 183.161 57.906h179.2c77.823 0 140.623-15.369 183.163-57.906 42.534-42.538 57.901-105.338 57.901-183.161v-179.199c0-77.824-15.366-140.627-57.901-183.162-42.54-42.534-105.34-57.907-183.163-57.907h-179.2c-77.823 0-140.623 15.373-183.161 57.907s-57.906 105.338-57.906 183.162v179.199c0 77.823 15.369 140.623 57.906 183.161zM412.493 803.505c-24.662-24.662-39.161-66.396-39.161-137.906v-14.933h100.267c77.823 0 140.623-15.369 183.163-57.906 42.534-42.538 57.901-105.338 57.901-183.161v-100.268h14.938c71.507 0 113.242 14.5 137.907 39.162 24.659 24.662 39.155 66.396 39.155 137.906v179.2c0 71.51-14.496 113.244-39.155 137.906-24.666 24.662-66.4 39.161-137.907 39.161h-179.201c-71.51 0-113.244-14.499-137.906-39.161zM367.238 848.76c42.538 42.537 105.338 57.906 183.161 57.906h179.201c77.824 0 140.621-15.369 183.162-57.906 42.534-42.538 57.901-105.338 57.901-183.161v-179.2c0-77.823-15.366-140.623-57.901-183.161-42.541-42.534-105.338-57.907-183.162-57.907h-46.938c-17.67 0-32 14.33-32 32v132.268c0 71.51-14.495 113.244-39.158 137.906s-66.396 39.161-137.906 39.161h-132.267c-17.673 0-32 14.326-32 32v46.933c0 77.823 15.369 140.623 57.906 183.161z" />
<glyph unicode="&#xe90d;" glyph-name="document-download" d="M926.471 536.261h-140.917c-115.569 0-209.679 94.11-209.679 209.676v140.922c0 26.819-21.943 48.762-48.761 48.762h-206.751c-150.186 0-271.604-97.524-271.604-271.604v-432.030c0-174.079 121.417-271.601 271.604-271.601h383.269c150.187 0 271.604 97.521 271.604 271.601v255.512c0 26.819-21.943 48.762-48.764 48.762zM525.651 263.681l-97.524-97.523c-3.413-3.416-7.801-6.341-12.19-7.804-4.389-1.946-8.777-2.926-13.654-2.926s-9.265 0.98-13.654 2.926c-3.901 1.463-7.801 4.389-10.727 7.314-0.488 0.49-0.976 0.49-0.976 0.98l-97.524 97.521c-14.141 14.141-14.141 37.546 0 51.687s37.546 14.141 51.688 0l34.621-35.596v204.312c0 19.992 16.579 36.571 36.571 36.571s36.571-16.579 36.571-36.571v-204.312l35.109 35.109c14.141 14.141 37.546 14.141 51.688 0s14.141-37.547 0-51.688zM365.711 484.573v-204.312l-34.621 35.596c-10.31 10.31-25.544 13.103-38.522 8.38-4.823-1.755-9.334-4.549-13.166-8.38-13.901-13.901-14.137-36.755-0.708-50.959 0.232-0.245 0.468-0.488 0.708-0.728l97.524-97.521c0-0.307 0.187-0.417 0.444-0.578 0.159-0.102 0.345-0.212 0.532-0.402 2.926-2.926 6.826-5.851 10.727-7.314 4.389-1.946 8.777-2.926 13.654-2.926s9.265 0.98 13.654 2.926c4.389 1.463 8.777 4.389 12.19 7.804l97.524 97.523c14.141 14.141 14.141 37.546 0 51.688-3.961 3.96-8.647 6.811-13.654 8.553-12.87 4.479-27.854 1.627-38.034-8.553l-35.109-35.044v204.248c0 19.992-16.579 36.571-36.571 36.571s-36.571-16.579-36.571-36.571zM292.569 398.879v85.694c0 60.388 49.326 109.714 109.714 109.714s109.714-49.326 109.714-109.714v-86.127c23.914-2.644 47.113-13.097 65.373-31.357 42.705-42.704 42.705-112.422 0-155.128l-97.524-97.521c-9.204-9.209-21.788-18.388-37.191-24.196-12.548-5.142-26.029-7.958-40.373-7.958-14.814 0-28.709 2.999-41.607 8.47-13.066 5.296-23.31 12.895-30.428 19.332-2.401 2.011-5.216 4.63-8.085 7.885l-94.48 94.479c-42.705 42.704-42.705 112.421 0 155.126 18.137 18.136 41.144 28.57 64.886 31.302zM902.093 463.118h-116.539c-155.965 0-282.822 126.858-282.822 282.819v116.541h-182.369c-59.424 0-108.481-19.168-142.048-50.695-32.843-30.847-56.413-78.67-56.413-147.767v-432.030c0-69.097 23.57-116.918 56.413-147.77 33.567-31.525 82.624-50.688 142.048-50.688h383.269c59.424 0 108.481 19.163 142.046 50.688 32.848 30.852 56.415 78.672 56.415 147.77v231.131zM785.554 536.261h140.917c26.821 0 48.764-21.943 48.764-48.762v-255.512c0-174.079-121.417-271.601-271.604-271.601h-383.269c-150.186 0-271.604 97.521-271.604 271.601v432.030c0 174.080 121.417 271.604 271.604 271.604h206.751c26.819 0 48.761-21.943 48.761-48.762v-140.922c0-115.566 94.111-209.676 209.679-209.676zM776.777 603.551c46.321-0.488 110.687-0.487 165.786-0.487 27.794 0 42.423 32.67 22.923 52.175-70.217 70.704-196.023 197.973-268.194 270.141-19.993 19.992-54.614 6.339-54.614-21.455v-170.179c0-71.192 60.465-130.194 134.099-130.194zM777.545 676.694v-0.004c18.9-0.199 40.872-0.317 64.037-0.385-3.482 3.515-7 7.062-10.54 10.638-37.559 37.9-78.212 78.926-115.22 116.181v-69.378c0-28.883 25.774-57.051 60.956-57.051h0.768zM965.486 655.239c19.5-19.505 4.871-52.175-22.923-52.175h-0.007c-55.099 0-119.464 0-165.778 0.487-73.634 0-134.099 59.002-134.099 130.194v170.179c0 27.794 34.621 41.448 54.614 21.455 48.721-48.723 121.893-122.561 185.901-187.152 30.8-31.080 59.48-60.020 82.293-82.989z" />
<glyph unicode="&#xe90e;" glyph-name="document-text" d="M704.534 944.026c-20.774 20.773-56.746 6.587-56.746-22.293v-176.827c0-73.973 62.826-135.28 139.331-135.28 48.134-0.506 115.014-0.506 172.269-0.506 28.88 0 44.080 33.946 23.811 54.212-72.96 73.467-203.68 205.707-278.666 280.693zM942.669 539.706h-146.429c-120.080 0-217.866 97.786-217.866 217.867v146.427c0 27.867-22.8 50.667-50.666 50.667h-214.828c-156.053 0-282.213-101.333-282.213-282.213v-448.907c0-180.88 126.16-282.214 282.213-282.214h398.239c156.054 0 282.214 101.334 282.214 282.214v265.494c0 27.866-22.8 50.666-50.666 50.666zM486.669 156.666h-202.668c-20.773 0-38 17.226-38 38s17.227 38 38 38h202.668c20.771 0 38-17.226 38-38s-17.229-38-38-38zM588 359.331h-303.999c-20.773 0-38 17.229-38 38 0 20.774 17.227 38 38 38h303.999c20.774 0 38-17.226 38-38 0-20.771-17.226-38-38-38z" />
<glyph unicode="&#xe90f;" glyph-name="download" d="M369.777 550.398c28.277 0 51.2-22.923 51.2-51.2v-149.459l3.618 3.618c19.995 19.995 52.413 19.995 72.408 0s19.995-52.412 0-72.408l-91.022-91.025c-14.643-14.643-36.665-19.019-55.798-11.093-19.132 7.919-31.606 26.59-31.606 47.302v273.065c0 28.277 22.923 51.2 51.2 51.2zM242.552 353.358c19.995 19.995 52.413 19.995 72.408 0l91.023-91.023c19.995-19.995 19.995-52.415 0-72.404-19.995-19.995-52.413-19.995-72.408-0.007l-91.023 91.025c-19.995 19.995-19.995 52.413 0 72.408zM161.359 798.639c-36.9-36.901-58.959-99.69-58.959-208.419v-273.067c0-108.728 22.059-171.52 58.959-208.418s99.69-58.962 208.419-58.962h273.067c108.73 0 171.515 22.064 208.42 58.962 36.898 36.898 58.955 99.69 58.955 208.418v227.556c0 28.277 22.924 51.2 51.2 51.2s51.2-22.923 51.2-51.2v-227.556c0-118.825-23.45-215.327-88.951-280.829-65.495-65.495-161.997-88.951-280.824-88.951h-273.067c-118.828 0-215.327 23.456-280.827 88.951-65.499 65.502-88.951 162.004-88.951 280.829v273.067c0 118.828 23.452 215.327 88.951 280.827s161.999 88.951 280.827 88.951h227.555c28.277 0 51.2-22.923 51.2-51.2s-22.923-51.2-51.2-51.2h-227.555c-108.728 0-171.519-22.059-208.419-58.959zM577.74 956.101c19.132 7.925 41.154 3.544 55.797-11.099l364.091-364.089c14.643-14.643 19.019-36.665 11.093-55.798-7.919-19.132-26.59-31.606-47.302-31.606h-182.040c-71.107 0-134.8 11.19-178.429 54.818s-54.818 107.323-54.818 178.426v182.045c0 20.708 12.474 39.378 31.607 47.303zM648.533 785.191v-58.437c0-65.43 11.566-92.758 24.826-106.018s40.587-24.826 106.021-24.826h58.436l-189.283 189.281z" />
<glyph unicode="&#xe910;" glyph-name="drops" d="M426.669 691.2c-59.734 98.133-128.002 183.467-128.002 183.467s-213.333-264.532-213.333-384.001c0-102.4 72.533-192 170.667-209.066 0 8.534 0 21.334 0 29.866 0 102.4 85.334 256 170.668 379.735zM640 832c0 0-298.666-362.666-298.666-520.534 0-157.866 132.266-290.131 298.666-290.131s298.669 128 298.669 290.131c0 162.134-298.669 520.534-298.669 520.534zM849.069 264.534c0-12.8-8.534-25.6-12.8-38.4-8.534-8.534-12.8-21.334-21.334-29.869-8.534-8.531-17.066-17.066-25.6-21.331-17.066-12.8-38.4-17.069-51.2-21.334-17.066-4.266-29.866 0-38.4 0s-12.8 4.266-12.8 4.266c0 0 21.334 21.334 29.866 29.869 102.4 85.331 85.334 221.866 85.334 221.866s4.266-4.266 12.8-8.534c8.534-8.531 17.066-17.066 25.6-34.131 8.534-17.069 17.066-38.4 17.066-59.734-4.266-17.066-4.266-29.866-8.531-42.666z" />
<glyph unicode="&#xe911;" glyph-name="eye" d="M512 564.906c-64.686 0-116.906-52.22-116.906-116.906s52.22-116.905 116.906-116.905c64.686 0 116.905 52.219 116.905 116.905s-52.219 116.906-116.905 116.906zM323.414 448c0 104.273 84.313 188.586 188.586 188.586s188.585-84.313 188.585-188.586c0-104.274-84.311-188.585-188.585-188.585s-188.586 84.311-188.586 188.585zM93.082 578.193c102.529 161.168 253.11 258.927 418.918 258.927 165.816 0 316.406-97.769 418.934-258.951 23.741-37.216 34.401-84.674 34.401-129.956 0-45.29-10.665-92.758-34.417-129.98-102.528-161.167-253.107-258.929-418.918-258.929-165.816 0-316.404 97.772-418.933 258.954l30.24 19.236-30.21-19.287c-23.76 37.228-34.43 84.705-34.43 130.006 0 45.292 10.666 92.76 34.415 129.98zM512 765.441c-135.41 0-265.569-79.725-358.453-225.743l-0.030-0.047c-14.641-22.937-23.171-56.098-23.171-91.437 0-35.337 8.53-68.499 23.171-91.437l0.030-0.046c92.884-146.017 223.043-225.746 358.453-225.746s265.569 79.729 358.451 225.746l0.031 0.046c14.643 22.938 23.173 56.1 23.173 91.437 0 35.339-8.53 68.5-23.173 91.437l-0.031 0.047c-92.882 146.018-223.043 225.743-358.451 225.743z" />
<glyph unicode="&#xe912;" glyph-name="folder-open" d="M952.174 481.157l-7.804 10.728c-13.648 16.579-29.74 29.744-48.274 39.497-24.869 14.141-53.146 21.455-82.403 21.455h-607.089c-29.257 0-57.051-7.314-82.407-21.455-19.017-10.24-36.084-24.381-50.225-41.936-27.794-35.596-40.96-79.481-36.571-123.367l18.042-227.715c6.339-68.754 14.629-153.6 169.204-153.6h571.492c154.573 0 162.377 84.846 169.201 154.083l18.044 226.744c4.389 40.96-6.341 81.92-31.21 115.566zM626.932 211.99h-233.569c-19.017 0-34.134 15.609-34.134 34.135 0 18.529 15.116 34.133 34.134 34.133h233.569c19.017 0 34.134-15.604 34.134-34.133 0-19.016-15.116-34.135-34.134-34.135zM893.023 438.137l-6.327 8.7c-7.329 8.546-15.477 14.983-24.664 19.82l-1.053 0.554-1.039 0.589c-13.48 7.665-29.243 11.894-46.248 11.894h-607.089c-16.686 0-32.229-4.077-46.782-12.193l-0.472-0.263-0.476-0.257c-10.159-5.47-19.561-13.129-27.596-22.993-16.449-21.287-23.52-46.41-21.097-70.631l0.075-0.75 18.064-227.997c3.517-37.976 6.962-54.616 14.809-65.156 3.289-4.418 17.222-21.548 81.518-21.548h571.492c64.271 0 78 17.108 81.232 21.475 7.936 10.708 11.293 27.399 15.111 65.96l18.066 227.047 0.11 0.994c2.465 23.058-3.525 45.657-17.306 64.298l-0.329 0.455zM965.339 138.847l-0.073-0.753c-6.81-69.098-15.111-153.329-169.128-153.329h-571.492c-154.575 0-162.865 84.846-169.204 153.6l-18.042 227.715c-4.389 43.886 8.777 87.771 36.571 123.367 14.141 17.554 31.208 31.696 50.225 41.936 25.356 14.141 53.15 21.455 82.407 21.455h607.089c29.257 0 57.534-7.314 82.403-21.455 18.534-9.753 34.626-22.919 48.274-39.497l7.804-10.728c24.869-33.646 35.599-74.606 31.21-115.566l-18.044-226.744zM393.362 280.258c-19.017 0-34.134-15.604-34.134-34.133 0-18.526 15.116-34.135 34.134-34.135h233.569c19.017 0 34.134 15.119 34.134 34.135 0 18.529-15.116 34.133-34.134 34.133h-233.569zM626.932 138.847h-233.569c-60.091 0-107.276 49.035-107.276 107.278s47.186 107.276 107.276 107.276h233.569c60.091 0 107.276-49.032 107.276-107.276 0-59.413-47.863-107.278-107.276-107.278zM925.228 659.329c4.286-27.809-26.485-46.911-53.862-40.408-18.447 4.381-37.544 6.573-57.19 6.573h-607.571c-20.096 0-39.962-2.407-59.043-7.055-27.018-6.581-57.498 11.804-57.498 39.611v74.719c0 174.080 53.151 227.231 227.231 227.231h57.539c69.729 0 91.672-22.431 119.954-59.002l58.514-78.019c12.19-16.579 12.678-17.554 34.133-17.554h116.054c143.631 0 204.801-36.256 221.741-146.096zM836.718 697.873c-7.483 0.51-14.994 0.764-22.543 0.764h-607.571c-14.582 0-29.088-0.982-43.399-2.915v37.048c0 84.443 14.087 114.349 26.912 127.176s42.733 26.912 127.176 26.912h57.539c27.189 0 36.169-4.393 39.113-6.083 4.048-2.323 9.024-6.508 22.661-24.108l57.963-77.283c0.155-0.212 0.319-0.435 0.491-0.67 2.385-3.255 6.339-8.648 10.375-13.315 5.157-5.964 13.831-14.882 26.944-21.901 13.275-7.104 25.79-9.439 34.551-10.383 7.725-0.832 15.591-0.832 20.504-0.832h116.054c68.755 0 101.911-9.337 118.748-20.194 4.879-3.141 9.852-7.342 14.482-14.215zM494.787 900.998c-28.282 36.571-50.225 59.002-119.954 59.002h-57.539c-174.080 0-227.231-53.151-227.231-227.231v-74.719c0-27.807 30.481-46.192 57.498-39.611 19.082 4.647 38.947 7.055 59.043 7.055h607.571c19.646 0 38.744-2.191 57.19-6.573 27.377-6.503 58.149 12.599 53.862 40.408-16.94 109.84-78.109 146.096-221.741 146.096h-116.054c-21.228 0-21.93 0.955-33.75 17.034l-0.383 0.521-58.514 78.019z" />
<glyph unicode="&#xe913;" glyph-name="global" d="M512 836.265c-214.433 0-388.265-173.833-388.265-388.265 0-214.436 173.833-388.27 388.265-388.27 214.436 0 388.27 173.834 388.27 388.27 0 214.433-173.834 388.265-388.27 388.265zM46.934 448c0 256.848 208.217 465.066 465.066 465.066 256.85 0 465.070-208.217 465.070-465.066 0-256.85-208.22-465.070-465.070-465.070-256.848 0-465.066 208.22-465.066 465.070zM302.934 831.998c0 21.208 17.192 38.4 38.4 38.4h42.667c12.347 0 23.941-5.937 31.157-15.955s9.176-22.896 5.266-34.607c-80.564-241.279-80.564-502.396 0-743.676 3.91-11.709 1.951-24.586-5.266-34.606s-18.81-15.954-31.157-15.954h-42.667c-21.208 0-38.4 17.193-38.4 38.4 0 18.058 12.464 33.203 29.258 37.304-65.321 226.452-65.321 466.933 0 693.389-16.794 4.101-29.258 19.248-29.258 37.305zM627.84 868.422c20.116 6.717 41.866-4.145 48.584-24.261 85.837-257.067 85.837-535.256 0-792.326-6.717-20.111-28.467-30.976-48.584-24.259s-30.981 28.467-24.264 48.584c80.568 241.28 80.568 502.397 0 743.677-6.717 20.116 4.147 41.868 24.264 48.585zM105.556 351.155c10.018 7.219 22.896 9.18 34.607 5.268 241.279-80.563 502.397-80.563 743.677 0 11.709 3.912 24.586 1.951 34.606-5.268 10.020-7.214 15.954-18.811 15.954-31.155v-42.665c0-21.212-17.193-38.4-38.4-38.4-18.058 0-33.203 12.462-37.304 29.256-226.458-65.321-466.934-65.321-693.39 0-4.102-16.794-19.248-29.256-37.305-29.256-21.208 0-38.4 17.188-38.4 38.4v42.665c0 12.344 5.937 23.941 15.955 31.155zM883.84 539.575c-241.28 80.564-502.397 80.564-743.677 0-20.116-6.717-41.868 4.145-48.585 24.261s4.145 41.868 24.261 48.585c257.067 85.836 535.256 85.836 792.326 0 20.111-6.717 30.976-28.469 24.259-48.585s-28.467-30.978-48.584-24.261z" />
<glyph unicode="&#xe914;" glyph-name="clock" d="M497.131 869.647c-224.658 0-406.778-182.12-406.778-406.778 0-224.654 182.12-406.775 406.778-406.775 224.654 0 406.775 182.121 406.775 406.775 0 224.658-182.121 406.778-406.775 406.778zM0 462.869c0 274.558 222.572 497.131 497.131 497.131 274.555 0 497.128-222.572 497.128-497.131 0-274.555-222.572-497.128-497.128-497.128-274.558 0-497.131 222.572-497.131 497.128zM497.131 809.349c24.949 0 45.176-20.226 45.176-45.176v-268.737l142.553-47.505c23.672-7.888 36.466-33.473 28.579-57.142s-33.473-36.463-57.142-28.576l-173.451 57.799c-18.447 6.147-30.892 23.413-30.892 42.86v301.301c0 24.95 20.224 45.176 45.176 45.176z" />
<glyph unicode="&#xe915;" glyph-name="document-upload" d="M614.4 947.2c21.207 0 38.4-17.192 38.4-38.4v-204.8c0-7.069 5.729-12.8 12.8-12.8h204.8c21.207 0 38.4-17.192 38.4-38.4s-17.193-38.4-38.4-38.4h-204.8c-49.485 0-89.6 40.115-89.6 89.6v204.8c0 21.208 17.192 38.4 38.4 38.4zM256 870.4c-35.346 0-64-28.654-64-64v-716.8c0-35.348 28.654-64 64-64h512c35.348 0 64 28.652 64 64v547.294l-233.506 233.506h-342.494zM115.2 806.4c0 77.762 63.038 140.8 140.8 140.8h358.4c10.184 0 19.953-4.046 27.151-11.247l256-256c7.204-7.201 11.249-16.969 11.249-27.153v-563.2c0-77.763-63.037-140.8-140.8-140.8h-512c-77.762 0-140.8 63.037-140.8 140.8v716.8zM512 537.6c21.208 0 38.4-17.192 38.4-38.4v-307.2c0-21.207-17.192-38.4-38.4-38.4s-38.4 17.193-38.4 38.4v307.2c0 21.208 17.192 38.4 38.4 38.4zM484.847 526.353c14.996 14.996 39.31 14.996 54.306 0l153.598-153.602c14.996-14.996 14.996-39.306 0-54.303s-39.306-14.996-54.303 0l-126.449 126.444-126.447-126.444c-14.996-14.996-39.31-14.996-54.306 0s-14.996 39.306 0 54.303l153.6 153.602z" />
<glyph unicode="&#xe916;" glyph-name="heart" d="M701.44 827.734c-77.227 0-146.347-37.547-189.44-95.147-43.093 57.6-112.213 95.147-189.44 95.147-130.987 0-237.227-106.667-237.227-238.507 0-50.773 8.107-97.708 22.187-141.228 67.413-213.333 275.2-340.907 378.027-375.893 14.507-5.12 38.4-5.12 52.907 0 102.827 34.987 310.613 162.56 378.027 375.893 14.080 43.52 22.187 90.454 22.187 141.228 0 131.84-106.24 238.507-237.227 238.507z" />
<glyph unicode="&#xe917;" glyph-name="youtube" d="M724.802 559.429c-5.603 19.997-19.602 34.286-39.201 39.999-33.602 8.572-176.402 8.572-176.402 8.572s-139.999 0-176.399-8.572c-19.6-5.713-33.6-20.002-39.2-39.999-5.6-37.146-5.6-111.429-5.6-111.429s0-74.284 8.4-111.429c5.6-19.997 19.6-34.286 39.2-39.998 33.6-8.572 176.4-8.572 176.4-8.572s139.999 0 176.399 8.572c19.602 5.712 33.602 20.001 39.201 39.998 8.4 37.146 8.4 111.429 8.4 111.429s0 74.284-11.198 111.429zM467.2 379.429v137.143l117.599-68.571-117.599-68.571z" />
<glyph unicode="&#xe918;" glyph-name="kids" d="M585.143 740.571c0-80.457 65.829-146.286 146.286-146.286s146.286 65.829 146.286 146.286c0 80.457-65.829 146.286-146.286 146.286s-146.286-64.366-146.286-146.286zM839.274 557.714h-158.833c-52.484 0-95.298-42.514-95.298-94.629v-408.686c0-24.686 20.718-45.257 45.579-45.257 24.858 0 45.575 20.571 45.575 45.257v91.886c0 24.686 20.718 45.257 45.579 45.257s45.579-20.571 45.579-45.257v-91.886c0-24.686 20.714-45.257 45.575-45.257s45.579 20.571 45.579 45.257v349.714c0 8.229 11.048 12.343 16.574 6.857l70.437-69.943c17.957-17.829 46.958-17.829 64.914 0 17.953 17.829 17.953 46.629 0 64.457l-131.207 135.771c-11.052 9.6-24.861 16.457-40.053 16.457zM13.205 342.4c17.377-17.829 45.448-17.829 62.825 0l28.071 28.8c5.347 5.486 14.704 0 13.367-6.857l-44.111-202.971c-1.337-8.229 4.010-15.086 12.031-15.086h53.468c12.030 0 21.387-9.6 21.387-21.943v-69.943c0-24.686 20.050-45.257 44.111-45.257s44.111 20.571 44.111 45.257v45.257c0 24.686 20.051 45.257 44.111 45.257s44.111-20.571 44.111-45.257v-45.257c0-24.686 20.051-45.257 44.113-45.257 24.060 0 44.109 20.571 44.109 45.257v69.943c0 12.343 9.359 21.943 21.387 21.943h53.467c8.024 0 13.371 6.857 12.032 15.086l-72.181 331.886c-8.020 38.4-41.439 64.457-78.866 64.457h-128.324c-48.121 0-93.569-19.2-126.987-53.486l-93.569-96c-16.040-19.2-16.040-48 1.337-65.829zM146.286 740.571c0-80.457 65.829-146.286 146.286-146.286s146.286 65.829 146.286 146.286c0 80.457-65.829 146.286-146.286 146.286s-146.286-64.366-146.286-146.286z" />
<glyph unicode="&#xe919;" glyph-name="location" d="M495.977 628.844c-43.224 0-78.263-35.039-78.263-78.263s35.039-78.263 78.263-78.263c43.223 0 78.263 35.040 78.263 78.263s-35.040 78.263-78.263 78.263zM308 550.581c0 103.817 84.16 187.977 187.977 187.977s187.977-84.16 187.977-187.977c0-103.817-84.16-187.977-187.977-187.977s-187.977 84.16-187.977 187.977zM496.099 850.286c137.202-0.093 268.797-79.399 303.92-234.586v-0.002c42.272-186.746-73.036-351.207-188.439-462.024l-0.1-0.102c-64.443-62.193-166.49-62.34-231.502 0.066-114.98 110.829-230.315 275.699-188.051 462.461 35.313 155.17 166.985 234.281 304.172 234.188zM907.023 639.922c-48.501 214.305-232.425 319.958-410.849 320.078-178.431 0.121-362.484-105.291-411.235-319.595l-0.013-0.056c-55.847-246.699 98.434-449.592 218.955-565.742l0.069-0.066c107.33-103.080 276.548-103.248 383.621-0.007 120.971 116.165 275.31 318.642 219.451 565.389z" />
<glyph unicode="&#xe91b;" glyph-name="metro" d="M245.27 158.418h-226.671l17.98 71.076h47.954l193.393 528.95 234.071-314.13 234.070 314.13 193.393-528.95h47.959l17.981-71.076h-226.673l-96.696 264.474-170.034-228.183-170.031 228.183-96.696-264.474z" />
<glyph unicode="&#xe91c;" glyph-name="map" d="M940.448 738.603c16.787-4.84 29.619-18.422 33.504-35.458 8.653-37.984 12.717-80.080 12.717-127.144v-256c0-111.444-22.003-201.768-83.027-263.336-8.986-9.069-21.216-14.182-33.984-14.208-12.768-0.032-25.024 5.030-34.048 14.054l-272.215 272.215c-9.002 9.002-14.059 21.211-14.059 33.941s5.057 24.94 14.059 33.941l329.815 329.813c12.352 12.355 30.445 17.021 47.238 12.18zM665.216 362.668l198.272-198.271c17.382 35.616 27.181 85.446 27.181 155.604v256c0 4.071-0.032 8.075-0.102 12.015l-225.35-225.348zM188.611 771.393c-34.594-34.594-55.275-93.46-55.275-195.392v-256c0-80.43 12.989-134.369 35.588-170.376 17.906-28.525 44.262-49.606 84.439-63.046l620.065 620.061c-13.44 40.177-34.522 66.534-63.053 84.439-36 22.6-89.939 35.588-170.374 35.588h-255.997c-101.932 0-160.798-20.681-195.392-55.275zM120.728 839.276c61.406 61.406 151.873 83.392 263.274 83.392h255.997c88.531 0 163.443-13.891 221.414-50.279 59.936-37.62 95.59-95.314 112.525-169.183 3.686-16.108-1.165-32.981-12.851-44.666l-659.625-659.628c-11.684-11.686-28.559-16.538-44.666-12.845-73.869 16.934-131.562 52.589-169.182 112.525-36.388 57.965-50.279 132.883-50.279 221.409v256c0 111.401 21.986 201.868 83.392 263.274zM563.395 396.609c18.746 18.745 49.137 18.745 67.882 0l272.211-272.212c9.030-9.030 14.093-21.28 14.061-34.048-0.026-12.768-5.139-24.998-14.208-33.984-61.568-61.024-151.891-83.027-263.341-83.027h-255.997c-47.064 0-89.161 4.064-127.144 12.717-17.037 3.878-30.618 16.717-35.459 33.504s-0.175 34.88 12.18 47.238l329.814 329.812zM371.988 69.44c3.94-0.070 7.944-0.102 12.015-0.102h255.997c70.163 0 119.994 9.792 155.61 27.181l-198.273 198.266-225.348-225.344zM389.122 665.281c-36.648 0-67.673-20.201-76.123-56.612l-0.005-0.021c-10.843-46.623 17.919-92.048 56.182-128.314 11.51-10.821 28.933-10.479 39.673-0.207l0.166 0.159 0.001-0.001c38.030 36.029 66.769 81.601 56.201 128.5-8.49 36.337-39.487 56.494-76.095 56.494zM389.122 761.281c71.725 0 149.075-42.305 169.637-130.909l0.055-0.237h-0.001c22.623-99.77-40.692-178.703-83.695-219.466-48.134-45.953-123.638-45.593-171.832-0.153l-0.083 0.078c-42.775 40.524-106.991 119.659-83.72 219.777zM389.122 761.281c-71.72 0-149.062-42.299-169.633-130.888zM340.039 588.801c0 26.51 21.491 48 48 48h0.383c26.509 0 48-21.49 48-48s-21.491-48-48-48h-0.383c-26.509 0-48 21.491-48 48z" />
<glyph unicode="&#xe91d;" glyph-name="menu" d="M12.8 704c0 21.208 17.192 38.4 38.4 38.4h921.6c21.207 0 38.4-17.192 38.4-38.4s-17.193-38.4-38.4-38.4h-921.6c-21.208 0-38.4 17.192-38.4 38.4zM12.8 448c0 21.208 17.192 38.4 38.4 38.4h921.6c21.207 0 38.4-17.192 38.4-38.4s-17.193-38.4-38.4-38.4h-921.6c-21.208 0-38.4 17.192-38.4 38.4zM12.8 192c0 21.207 17.192 38.4 38.4 38.4h921.6c21.207 0 38.4-17.193 38.4-38.4s-17.193-38.4-38.4-38.4h-921.6c-21.208 0-38.4 17.193-38.4 38.4z" />
<glyph unicode="&#xe91e;" glyph-name="mortarboard" d="M534.794 409.52c-14.64-5.565-30.806-5.584-45.459-0.051l-276 105.146v-238.349c0-4.323 1.315-8.547 3.771-12.109s5.935-6.291 9.978-7.827l277.333-105.6c4.886-1.862 10.285-1.862 15.168 0l277.334 105.6c4.042 1.536 7.523 4.266 9.978 7.827s3.77 7.786 3.773 12.109v238.352l-275.875-105.098zM967.603 659.938l-448 170.667c-4.899 1.854-10.307 1.854-15.206 0l-447.999-170.667c-4.042-1.538-7.521-4.269-9.976-7.83s-3.769-7.783-3.769-12.108c0-4.326 1.314-8.547 3.769-12.109s5.934-6.291 9.976-7.83l447.999-170.666c4.899-1.859 10.31-1.859 15.206 0l448 170.666c4.042 1.539 7.523 4.269 9.978 7.83s3.77 7.782 3.77 12.109c0 4.325-1.315 8.548-3.77 12.108s-5.936 6.292-9.978 7.83zM149.333 192c-5.658 0-11.084 2.246-15.085 6.25-4.001 4-6.248 9.424-6.248 15.085v394.157c0 5.658 2.248 11.082 6.248 15.085 4.001 4 9.427 6.246 15.085 6.246s11.084-2.246 15.085-6.246c4.001-4.003 6.248-9.427 6.248-15.085v-394.157c0-5.661-2.247-11.085-6.248-15.085-4.001-4.003-9.427-6.25-15.085-6.25zM149.334 234.666c-16.968-0.019-33.236-6.768-45.234-18.765-11.998-12-18.747-28.266-18.766-45.235v-85.334c0-5.658 2.248-11.082 6.248-15.085 4.001-4 9.427-6.246 15.085-6.246h85.333c5.658 0 11.084 2.246 15.085 6.246 4.001 4.003 6.249 9.427 6.249 15.085v85.334c-0.019 16.97-6.768 33.235-18.766 45.235-11.998 11.997-28.266 18.746-45.234 18.765z" />
<glyph unicode="&#xe91f;" glyph-name="men" d="M876.194 427.042h-79.194c8.073-22.101 12.48-45.952 12.48-70.81v-299.298c0-10.364-1.801-20.314-5.086-29.564h130.923c48.909 0 88.691 39.787 88.691 88.691v163.162c0.004 81.506-66.308 147.819-147.814 147.819zM214.531 356.233c0 24.858 4.41 48.708 12.482 70.805h-79.192c-81.508 0-147.82-66.313-147.82-147.819v-163.162c0-48.905 39.786-88.691 88.692-88.691h130.924c-3.282 9.254-5.086 19.2-5.086 29.564v299.302zM602.522 504.049h-181.042c-81.508 0-147.82-66.311-147.82-147.821v-299.298c0-16.329 13.236-29.564 29.564-29.564h417.558c16.329 0 29.564 13.235 29.564 29.564v299.298c0 81.51-66.313 147.821-147.823 147.821zM511.979 896c-98.022 0-177.77-79.748-177.77-177.775 0-66.49 36.698-124.56 90.894-155.048 25.705-14.46 55.341-22.724 86.876-22.724 31.539 0 61.175 8.264 86.882 22.724 54.195 30.488 90.893 88.56 90.893 155.048 0 98.025-79.748 177.775-177.775 177.775zM199.825 730.302c-73.31 0-132.95-59.64-132.95-132.951s59.64-132.951 132.95-132.951c18.596 0 36.304 3.853 52.39 10.776 27.812 11.974 50.744 33.17 64.934 59.72 9.96 18.634 15.626 39.892 15.626 62.454 0 73.308-59.64 132.951-132.951 132.951zM824.166 730.304c-73.31 0-132.949-59.64-132.949-132.951 0-22.564 5.666-43.822 15.625-62.454 14.191-26.552 37.124-47.748 64.934-59.72 16.085-6.925 33.796-10.778 52.39-10.778 73.31 0 132.949 59.642 132.949 132.952s-59.639 132.951-132.949 132.951z" />
<glyph unicode="&#xe920;" glyph-name="people" d="M1023.997 276.518v-102.803c0-10.093-8.192-18.285-18.285-18.285h-219.43v73.144c0 59.904-19.528 115.2-52.224 160.328 34.232 40.632 87.002 65.062 145.882 57.818 83.678-10.312 144.056-85.941 144.056-170.202zM289.938 388.902c-32.695-45.128-52.224-100.424-52.224-160.328v-73.144h-219.429c-10.094 0-18.286 8.192-18.286 18.285v102.803c0 84.299 60.379 159.928 144.018 170.24 58.88 7.243 111.689-17.224 145.92-57.856zM731.43 228.57v-91.426c0-10.097-8.192-18.289-18.289-18.289h-402.284c-10.094 0-18.286 8.192-18.286 18.289v91.426c0 121.197 98.232 219.43 219.429 219.43s219.43-98.232 219.43-219.43zM673.679 535.443c1.574-5.192-0.802-10.97-5.704-13.312-104.011-50.067-207.981-50.067-311.992 0-4.898 2.342-7.277 8.12-5.704 13.312 37.376 122.295 21.21 241.701 161.717 241.701 140.51 0 124.344-119.406 161.683-241.701zM985.395 522.131c1.133-3.512-0.55-7.499-3.878-9.035-81.37-37.997-162.778-37.997-244.152 0-3.362 1.574-5.011 5.523-3.874 9.035 29.293 91.942 16.418 181.869 125.952 181.869 109.53 0 96.655-89.928 125.952-181.869zM290.523 522.131c1.134-3.512-0.549-7.499-3.877-9.035-81.371-37.997-162.779-37.997-244.151 0-3.365 1.574-5.010 5.523-3.877 9.035 29.294 91.942 16.421 181.869 125.952 181.869s96.658-89.928 125.952-181.869z" />
<glyph unicode="&#xe921;" d="M510.72 842.667c-217.969 0-394.667-176.698-394.667-394.667s176.698-394.666 394.667-394.666c217.969 0 394.666 176.698 394.666 394.666s-176.698 394.667-394.666 394.667zM52.053 448c0 253.315 205.352 458.667 458.667 458.667s458.666-205.352 458.666-458.667c0-253.315-205.352-458.666-458.666-458.666s-458.667 205.352-458.667 458.666z" />
<glyph unicode="&#xe922;" d="M429.882 571.976c-11.958-6.913-24.975-24.98-24.975-62.536v-143.36c0-37.555 13.018-55.624 24.975-62.536 11.944-6.904 34.051-9.162 66.523 9.596 0.005 0.003 0.009 0.005 0.013 0.006l123.734 71.68c32.472 18.762 41.609 39.077 41.609 52.933s-9.137 34.171-41.609 52.932l-123.734 71.68c-0.005 0.004-0.010 0.006-0.017 0.010-32.471 18.756-54.575 16.498-66.519 9.594zM397.852 627.384c38.615 22.322 86.263 16.010 130.583-9.597l0.032-0.018 123.702-71.662c0.006-0.003 0.012-0.006 0.018-0.010 44.317-25.612 73.573-63.745 73.573-108.337 0-44.594-29.257-82.728-73.577-108.34-0.005-0.003-0.009-0.005-0.014-0.008l-123.734-71.68c-44.32-25.606-91.968-31.918-130.583-9.596-38.602 22.314-56.946 66.752-56.946 117.944v143.36c0 51.191 18.344 95.63 56.946 117.944z" />
<glyph unicode="&#xe923;" glyph-name="play" d="M332.104 650.225c-13.771-7.95-33.437-31.44-33.437-88.306v-227.84c0-57.080 19.675-80.645 33.547-88.689 13.93-8.079 44.148-13.36 93.324 14.496l196.855 114.193c49.385 28.564 59.953 57.399 59.953 73.28s-10.499 44.675-59.884 73.24l-197.12 114.347c-0.010 0.006 0.010-0.006 0 0-49.3 28.506-79.491 23.217-93.239 15.28zM268.11 761.080c66.994 38.675 148.186 26.967 221.321-15.334l197.12-114.347c0.009-0.005-0.009 0.005 0 0 73.054-42.263 123.796-106.704 123.796-184.041s-50.718-141.764-123.774-184.027c-0.007-0.004 0.008 0.004 0 0l-197.577-114.612c-73.135-41.537-154.202-52.788-220.995-14.058-66.876 38.783-97.334 114.844-97.334 199.417v227.84c0 84.361 30.467 160.497 97.443 199.161z" />
<glyph unicode="&#xe924;" glyph-name="search" d="M467.088 879.158c-213.318 0-386.246-172.928-386.246-386.246s172.928-386.244 386.246-386.244c213.317 0 386.244 172.927 386.244 386.244s-172.927 386.246-386.244 386.246zM0 492.912c0 257.966 209.122 467.088 467.088 467.088 257.963 0 467.086-209.122 467.086-467.088 0-257.963-209.122-467.086-467.086-467.086-257.966 0-467.088 209.122-467.088 467.086zM820.262 139.738c15.786 15.786 41.375 15.786 57.161 0l89.826-89.821c15.786-15.786 15.786-41.38 0-57.166s-41.38-15.786-57.166 0l-89.821 89.826c-15.786 15.786-15.786 41.375 0 57.161z" />
<glyph unicode="&#xe925;" glyph-name="sister-and-brother" d="M697.616 645.964c46.301 0 83.834 37.532 83.834 83.832s-37.533 83.831-83.834 83.831c-46.298 0-83.83-37.532-83.83-83.831s37.533-83.832 83.83-83.832zM911.248 391.93l-129.018 221.45c-6.182 10.608-18.73 18.106-28.186 18.106-2.269 0-107.555 0-109.821 0-9.456 0-22.006-7.498-28.186-18.106l-97.206-166.848-107.91 185.219c-6.867 11.79-19.267 18.325-32 18.302-0.234 0.014-0.467 0.036-0.704 0.036h-103.745c-0.237 0-0.468-0.021-0.702-0.036-12.733 0.025-25.132-6.511-32.002-18.302l-129.020-221.453c-10.263-17.613-4.302-40.211 13.311-50.474 5.846-3.405 12.238-5.024 18.548-5.024 12.705 0 25.070 6.566 31.928 18.336l56.906 97.677v-41.821l-25.468-183.517c-2.145-15.459 9.863-29.251 25.47-29.251v-112.333c0-21.12 16.424-39.107 37.53-39.859 22.16-0.787 40.375 16.941 40.375 38.928v113.267h30.773v-112.333c0-21.123 16.426-39.11 37.536-39.859 22.157-0.787 40.368 16.941 40.368 38.925v113.267c15.606 0 27.616 13.792 25.469 29.251l-25.469 183.523v40.474l56.125-96.336c1.91-3.274 15.162-26.429 24.176-31.683 5.846-3.402 12.24-5.024 18.547-5.024 12.707 0 25.072 6.566 31.93 18.336l55.302 94.925-0.531-326.72c0-21.51 17.437-38.95 38.947-38.95 0.090 0 0.179 0.013 0.269 0.013s0.176-0.013 0.269-0.013c21.51 0 38.954 17.44 38.954 38.95l-0.534 197.139c0 8.195 6.182 15.354 14.362 15.882 8.963 0.579 16.413-6.515 16.413-15.354v-196.73c0-21.12 16.422-39.11 37.53-39.862 22.16-0.79 40.374 16.941 40.374 38.925v326.72l55.302-94.925c6.858-11.77 19.222-18.336 31.926-18.336 6.31 0 12.704 1.619 18.547 5.024 17.616 10.262 23.574 32.861 13.315 50.474zM195.328 665.999l20.751 1.85c11.932 1.063 20.342 12.217 18.006 23.969-3.561 17.959-4.792 42.882 10.118 58.294-0.016-0.649-0.050-1.292-0.050-1.943 0-46.297 37.533-83.83 83.831-83.83 46.294 0 83.827 37.533 83.827 83.83 0 0.651-0.035 1.294-0.051 1.943 14.912-15.414 13.68-40.336 10.115-58.294-2.33-11.752 6.077-22.906 18.010-23.969l20.749-1.85c10.966-0.978 20.688 7.004 21.862 17.953 2.858 26.586 2.362 66.473-12.675 82.311-22.195 23.378-49.642 23.615-67.376 20.392-13.942 26.929-42.042 45.345-74.461 45.345-32.417 0-60.518-18.415-74.464-45.345-17.731 3.222-45.185 2.987-67.374-20.392-15.032-15.838-15.529-55.727-12.68-82.311 1.176-10.949 10.896-18.931 21.863-17.953z" />
<glyph unicode="&#xe926;" glyph-name="sms" d="M167.754 734.418c-28.255-26.237-47.512-69.073-47.512-137.086v-298.664c0-68.017 19.257-110.853 47.512-137.086 28.723-26.675 72.264-41.342 130.913-41.342h426.664c58.652 0 102.191 14.666 130.914 41.342 28.258 26.233 47.514 69.069 47.514 137.086v298.664c0 68.013-19.256 110.849-47.514 137.086-28.723 26.671-72.262 41.339-130.914 41.339h-426.664c-58.649 0-102.19-14.667-130.913-41.339zM120.246 785.581c45.944 42.662 109.069 59.995 178.421 59.995h426.664c69.353 0 132.478-17.333 178.423-59.995 46.41-43.097 69.823-106.927 69.823-188.248v-298.664c0-81.324-23.412-145.152-69.823-188.248-45.945-42.664-109.070-59.997-178.423-59.997h-426.664c-69.351 0-132.477 17.334-178.421 59.997-46.412 43.096-69.822 106.924-69.822 188.248v298.664c0 81.32 23.41 145.151 69.822 188.248zM752.607 597.787c12.032-15.064 9.574-37.031-5.488-49.063l-133.59-106.7c-56.674-45.117-146.814-45.117-203.486 0l-0.086 0.065-133.12 106.669c-15.045 12.056-17.469 34.026-5.413 49.071s34.026 17.469 49.071 5.414l133.034-106.598c0.013-0.010 0.026-0.020 0.039-0.031 31.222-24.82 85.243-24.815 116.452 0.013 0.009 0.006-0.005-0.006 0 0l133.53 106.65c15.062 12.032 37.027 9.574 49.059-5.49z" />
<glyph unicode="&#xe927;" glyph-name="instagram" d="M512 631.518c59.374 0 67.471 0 91.758 0 21.592 0 32.388-5.398 40.485-8.096 10.792-5.398 18.889-8.097 26.986-16.193s13.495-16.195 16.194-26.987c2.699-8.097 5.398-18.893 8.097-40.485 0-24.287 0-29.685 0-91.758s0-67.471 0-91.758c0-21.592-5.398-32.388-8.097-40.485-5.398-10.792-8.097-18.889-16.194-26.986s-16.194-13.495-26.986-16.194c-8.097-2.699-18.893-5.398-40.485-8.097-24.287 0-29.685 0-91.758 0s-67.471 0-91.758 0c-21.592 0-32.388 5.398-40.485 8.097-10.792 5.398-18.89 8.097-26.987 16.194s-13.494 16.194-16.193 26.986c-2.699 8.097-5.398 18.893-8.096 40.485 0 24.287 0 29.685 0 91.758s0 67.471 0 91.758c0 21.592 5.398 32.388 8.096 40.485 5.398 10.792 8.097 18.89 16.193 26.987s16.195 13.494 26.987 16.193c8.097 2.699 18.893 5.398 40.485 8.096 24.287 0 32.384 0 91.758 0zM512 672c-62.073 0-67.471 0-91.758 0-24.291 0-40.485-5.398-53.976-10.795-13.496-5.398-26.989-13.494-40.483-26.988s-18.891-24.289-26.988-40.483c-5.398-13.491-8.096-29.685-10.795-53.976 0-24.287 0-32.384 0-91.758 0-62.073 0-67.471 0-91.758 0-24.291 5.398-40.485 10.795-53.976 5.398-13.495 13.494-26.99 26.988-40.485 13.494-13.491 24.289-18.889 40.483-26.986 13.491-5.398 29.685-8.097 53.976-10.796 24.287 0 32.384 0 91.758 0s67.471 0 91.758 0c24.291 0 40.485 5.398 53.976 10.796 13.495 5.398 26.99 13.495 40.485 26.986 13.491 13.495 18.889 24.291 26.986 40.485 5.398 13.491 8.097 29.685 10.796 53.976 0 24.287 0 32.384 0 91.758s0 67.471 0 91.758c0 24.291-5.398 40.485-10.796 53.976-5.398 13.496-13.495 26.989-26.986 40.483-13.495 13.494-24.291 18.891-40.485 26.988-13.491 5.398-29.685 8.096-53.976 10.795-24.287 0-29.685 0-91.758 0zM512 564.048c-64.772 0-116.048-51.277-116.048-116.048s51.277-116.048 116.048-116.048c64.772 0 116.048 51.277 116.048 116.048s-51.277 116.048-116.048 116.048zM512 372.432c-40.481 0-75.568 32.388-75.568 75.568 0 40.481 32.388 75.568 75.568 75.568 40.481 0 75.568-32.388 75.568-75.568 0-40.481-35.087-75.568-75.568-75.568zM630.747 539.758c14.903 0 26.986 12.083 26.986 26.99 0 14.903-12.083 26.986-26.986 26.986-14.907 0-26.99-12.083-26.99-26.986 0-14.907 12.083-26.99 26.99-26.99z" />
<glyph unicode="&#xe928;" glyph-name="trash" horiz-adv-x="916" d="M128.042 790.033c90.249 9.114 180.512 13.673 270.782 13.673 151.377 0 303.161-7.705 454.007-22.654 22.215-2.201 38.438-21.995 36.239-44.21-2.204-22.215-21.994-38.439-44.21-36.238-148.27 14.694-297.397 22.26-446.036 22.26-87.563 0-175.133-4.423-262.716-13.269l-0.119-0.012-91.621-8.982c-22.217-2.178-41.994 14.067-44.172 36.284s14.067 41.994 36.284 44.172l91.562 8.977zM337.183 838.312l-9.878-58.816c-3.697-22.016-24.542-36.866-46.557-33.168s-36.866 24.542-33.168 46.557l9.881 58.835c0.182 1.082 0.371 2.231 0.565 3.405 3.039 18.456 7.85 47.686 27.452 69.913 23.203 26.311 58.12 34.963 100.323 34.963h117.67c42.807 0 77.666-9.386 100.706-35.936 19.596-22.584 24.285-51.866 27.19-70.028 0.156-0.979 0.307-1.926 0.458-2.838l9.857-58.265c3.724-22.011-11.097-42.874-33.108-46.599s-42.873 11.099-46.603 33.11l-9.917 58.626c-3.837 23.518-6.058 29.692-8.936 33.009-0.668 0.773-6.95 8.078-39.649 8.078h-117.67c-33.194 0-39.249-7.075-39.675-7.573-0.006-0.008 0.004 0.004 0 0-0.728-0.826-2.217-2.915-3.91-8.546-1.834-6.103-3.138-13.474-5.033-24.728zM754.887 639.243c22.275-1.438 39.171-20.663 37.732-42.941l-29.206-452.489-0.075-1.035c-1.17-16.772-2.501-35.727-6.069-53.447-3.724-18.502-10.386-38.513-24.129-56.406-28.941-37.683-77.614-52.014-144.341-52.014h-288.334c-66.725 0-115.396 14.331-144.337 52.014-13.745 17.893-20.404 37.904-24.13 56.406-3.569 17.721-4.896 36.675-6.070 53.447l-0.088 1.256-29.193 452.268c-1.438 22.277 15.456 41.503 37.733 42.941s41.503-15.456 42.941-37.733l29.178-452.043c0.002-0.038 0.005-0.075 0.008-0.113 1.274-18.179 2.326-32.067 4.741-44.059 2.337-11.604 5.446-18.507 8.992-23.126 5.641-7.346 21.644-20.415 80.224-20.415h288.334c58.584 0 74.585 13.069 80.228 20.415 3.546 4.619 6.656 11.523 8.99 23.126 2.42 11.992 3.471 25.88 4.743 44.059 0.005 0.038 0.005 0.075 0.005 0.113l29.179 452.043c1.439 22.277 20.663 39.171 42.943 37.733zM329.211 268.353c0 22.323 18.097 40.421 40.421 40.421h149.558c22.323 0 40.421-18.098 40.421-40.421s-18.098-40.421-40.421-40.421h-149.558c-22.324 0-40.421 18.098-40.421 40.421zM291.933 448c0 22.324 18.097 40.421 40.421 40.421h224.562c22.323 0 40.421-18.097 40.421-40.421s-18.098-40.421-40.421-40.421h-224.562c-22.324 0-40.421 18.097-40.421 40.421z" />
<glyph unicode="&#xe929;" glyph-name="telegram" d="M286.798 456.466c120.261 49.675 200.451 82.421 240.573 98.245 114.564 45.176 138.368 53.024 153.885 53.286 3.412 0.054 11.041-0.748 15.985-4.55 4.173-3.211 5.321-7.548 5.87-10.592s1.232-9.977 0.691-15.397c-6.21-61.842-33.072-211.92-46.738-281.187-5.782-29.308-17.17-39.135-28.193-40.097-23.954-2.092-42.145 15.009-65.349 29.429-36.308 22.565-56.817 36.612-92.061 58.628-40.73 25.45-14.325 39.435 8.887 62.292 6.075 5.979 111.623 97.002 113.668 105.26 0.256 1.031 0.49 4.882-1.92 6.916-2.414 2.033-5.972 1.339-8.543 0.783-3.639-0.783-61.641-37.127-174.003-109.038-16.464-10.719-31.375-15.941-44.736-15.667-14.729 0.3-43.062 7.896-64.125 14.387-25.834 7.962-46.367 12.171-44.579 25.691 0.931 7.044 11.161 14.245 30.689 21.61z" />
<glyph unicode="&#xe92a;" glyph-name="widget" d="M512 693.333c32 0 59.733-27.733 59.733-59.733s-27.733-59.733-59.733-59.733c-32 0-59.733 27.733-59.733 59.733s27.733 59.733 59.733 59.733zM686.933 524.8c-36.267-6.4-74.667-8.533-110.933-10.667-12.8 0-21.333-8.533-21.333-17.067-4.267-115.2 42.667-253.867 44.8-253.867 4.267-10.667-2.133-23.467-12.8-27.733-2.133 0-4.267-2.133-6.4-2.133-8.533 0-17.067 6.4-19.2 14.933-2.133 4.267-19.2 61.867-34.133 136.533-4.267 19.2-17.067 17.067-19.2 0-12.8-74.667-34.133-132.267-34.133-136.533-8.533-10.667-14.933-14.933-25.6-14.933-2.133 0-4.267 0-6.4 2.133-10.667 4.267-17.067 17.067-12.8 27.733 0 2.133 46.933 138.667 44.8 253.867 0 8.533-8.533 14.933-21.333 17.067-66.133 2.133-110.933 8.533-115.2 8.533-10.667 2.133-19.2 12.8-19.2 23.467 2.133 12.8 12.8 19.2 23.467 19.2 2.133 0 183.467-21.333 339.2 4.267 10.667 2.133 23.467-6.4 23.467-17.067 4.267-14.933-4.267-27.733-17.067-27.733zM512 85.333c-200.533 0-362.667 162.133-362.667 362.667s162.133 362.667 362.667 362.667c200.533 0 362.667-162.133 362.667-362.667s-162.133-362.667-362.667-362.667zM512 768c-177.067 0-320-142.933-320-320s142.933-320 320-320c177.067 0 320 142.933 320 320s-142.933 320-320 320z" />
<glyph unicode="&#xe92b;" glyph-name="arrow-right-square" d="M349.992 816.087c16.662 16.662 43.677 16.662 60.34 0l278.185-278.187c49.519-49.516 49.519-130.292 0-179.807l-278.185-278.187c-16.662-16.661-43.677-16.661-60.34 0s-16.663 43.678 0 60.339l278.185 278.187c16.192 16.192 16.192 42.935 0 59.127l-278.185 278.188c-16.663 16.662-16.663 43.677 0 60.34z" />
</font>
</defs>
</svg>
